Сибирские учёные купили фирменный Bathory и установили…

13.09.2009  :: АналитикаБлогНаходки

… что не все лицензионные диски одинаково полезны.

Итак, испытуемые:

1. Bathory «Blood On Ice» 1996: Black Mark Production [BMCD 666-12] 53:40.027
2. Bathory «Blood On Ice» 1996: Irond [Irond CD 03-431] 53:40.027, released in 2003 under the license from Black Mark Productions

Оформление (щёлкабельно для фото побольше):


Оригинал легко отличить по чёткости (обратите внимание на голову в верхнем правом углу).

Теперь берём правильно ™ настроенный Exact Audio Copy и смотрим голые цифры.

Сначала лог оригинала (релевантный отрывок). » Обратите внимание на высокий confidence от Accurate Rip.

А теперь посмотрим на лог лицензии (релевантный отрывок). »

Взгляните на данные от Accurate Rip: только один трэк совпал, и то с невысокой уверенностью. TOC у обоих дисков одинаковая, поэтому несовпадение контрольной суммы, очевидно, из-за разного звукового содержания.

Консультация с профессиональным звукорежиссёром Иваном из Anthropocide Productions (спасибо Ивану за помощь и потраченное время, а также спасибо cog-wheel, менеджеру группы Devoid Of Grace, за помощь с коммуникацией) выявила следующее: диски по звуку идентичны, разница только в смещении одного из них по времени в 0.016 секунды относительно другого. Ухом эту разницу заметить невозможно, но аппаратуру не обманешь. Поэтому далеко идущих выводов делать пока не буду (хотя материала на эту тему уже довольно много). Для меня это весомый повод всерьёз задуматься о принципиальной целесообразности приобретения лицензии, цены на которую уже подбираются к ценам на оригинальные диски.

Track 1

Filename E:\act\audio\true\01. Bathory — Intro.wav

Peak level 89.3 %
Track quality 100.0 %
Test CRC 497448A1
Accurately ripped (confidence 14) [CC02B42D]
Copy OK

Track 2

Filename E:\act\audio\true\02. Bathory — Blood On Ice.wav

Peak level 97.0 %
Track quality 100.0 %
Test CRC 53C2EBC0
Accurately ripped (confidence 14) [764F797F]
Copy OK

Track 3

Filename E:\act\audio\true\03. Bathory — Man Of Iron.wav

Peak level 89.1 %
Track quality 100.0 %
Test CRC 850B47CF
Accurately ripped (confidence 15) [78913773]
Copy OK

Track 4

Filename E:\act\audio\true\04. Bathory — One Eyed Old Man.wav

Peak level 97.3 %
Track quality 99.9 %
Test CRC 1AC96F5F
Accurately ripped (confidence 15) [FF934EAE]
Copy OK

Track 5

Filename E:\act\audio\true\05. Bathory — The Sword.wav

Peak level 96.9 %
Track quality 100.0 %
Test CRC 8FB44106
Accurately ripped (confidence 15) [E009FC42]
Copy OK

Track 6

Filename E:\act\audio\true\06. Bathory — The Stallion.wav

Peak level 96.9 %
Track quality 100.0 %
Test CRC D0C48C84
Accurately ripped (confidence 14) [CF203D01]
Copy OK

Track 7

Filename E:\act\audio\true\07. Bathory — The Woodwoman.wav

Peak level 96.9 %
Track quality 100.0 %
Test CRC B1551D99
Accurately ripped (confidence 15) [5FC1ED40]
Copy OK

Track 8

Filename E:\act\audio\true\08. Bathory — The Lake.wav

Peak level 96.9 %
Track quality 100.0 %
Test CRC 9EA92327
Accurately ripped (confidence 14) [1D5198ED]
Copy OK

Track 9

Filename E:\act\audio\true\09. Bathory — Gods Of Thunder Of Wind And Of Rain.wav

Peak level 96.9 %
Track quality 99.8 %
Test CRC 329E10C3
Accurately ripped (confidence 13) [9F87A148]
Copy OK

Track 10

Filename E:\act\audio\true\10. Bathory — The Ravens.wav

Peak level 68.3 %
Track quality 99.8 %
Test CRC 3ED0AF65
Accurately ripped (confidence 15) [44246983]
Copy OK

Track 11

Filename E:\act\audio\true\11. Bathory — The Revenge Of The Blood On Ice.wav

Peak level 100.0 %
Track quality 100.0 %
Test CRC 0889112E
Accurately ripped (confidence 14) [3C5C08B5]
Copy OK

All tracks accurately ripped

No errors occurred

Powered by Hackadelic Sliding Notes 1.6.5

Track 1

Filename E:\act\audio\irond\01. Bathory — Intro.wav

Pre-gap length 0:00:02.00

Peak level 89.3 %
Track quality 100.0 %
Test CRC 7FB1E5CA
Cannot be verified as accurate (confidence 14) [20871E58], AccurateRip returned [CC02B42D]
Copy OK

Track 2

Filename E:\act\audio\irond\02. Bathory — Blood On Ice.wav

Peak level 97.0 %
Track quality 100.0 %
Test CRC 737C1D22
Cannot be verified as accurate (confidence 14) [71639054], AccurateRip returned [764F797F]
Copy OK

Track 3

Filename E:\act\audio\irond\03. Bathory — Man Of Iron.wav

Peak level 89.1 %
Track quality 100.0 %
Test CRC 5BE3BFCF
Cannot be verified as accurate (confidence 15) [1ECD72F7], AccurateRip returned [78913773]
Copy OK

Track 4

Filename E:\act\audio\irond\04. Bathory — One Eyed Old Man.wav

Peak level 97.3 %
Track quality 99.9 %
Test CRC BBD75F17
Cannot be verified as accurate (confidence 15) [64F532E8], AccurateRip returned [FF934EAE]
Copy OK

Track 5

Filename E:\act\audio\irond\05. Bathory — The Sword.wav

Peak level 96.9 %
Track quality 100.0 %
Test CRC E3052D52
Cannot be verified as accurate (confidence 15) [7A740DFD], AccurateRip returned [E009FC42]
Copy OK

Track 6

Filename E:\act\audio\irond\06. Bathory — The Stallion.wav

Peak level 96.9 %
Track quality 100.0 %
Test CRC 802B031A
Cannot be verified as accurate (confidence 14) [6C2A7B25], AccurateRip returned [CF203D01]
Copy OK

Track 7

Filename E:\act\audio\irond\07. Bathory — The Woodwoman.wav

Peak level 96.9 %
Track quality 100.0 %
Test CRC 576A73FC
Cannot be verified as accurate (confidence 15) [7522F77E], AccurateRip returned [5FC1ED40]
Copy OK

Track 8

Filename E:\act\audio\irond\08. Bathory — The Lake.wav

Peak level 96.9 %
Track quality 100.0 %
Test CRC CB3C2285
Cannot be verified as accurate (confidence 14) [6D042079], AccurateRip returned [1D5198ED]
Copy OK

Track 9

Filename E:\act\audio\irond\09. Bathory — Gods Of Thunder Of Wind And Of Rain.wav

Peak level 96.9 %
Track quality 100.0 %
Test CRC 74EF9A24
Cannot be verified as accurate (confidence 13) [941B7AD2], AccurateRip returned [9F87A148]
Copy OK

Track 10

Filename E:\act\audio\irond\10. Bathory — The Ravens.wav

Peak level 68.3 %
Track quality 99.8 %
Test CRC 4A1755F0
Accurately ripped (confidence 2) [932800F1]
Copy OK

Track 11

Filename E:\act\audio\irond\11. Bathory — The Revenge Of The Blood On Ice.wav

Peak level 100.0 %
Track quality 100.0 %
Test CRC CC835519
Cannot be verified as accurate (confidence 14) [FE3516F9], AccurateRip returned [3C5C08B5]
Copy OK

1 track(s) accurately ripped
0 track(s) could not be verified as accurate

Some tracks could not be verified as accurate

No errors occurred

Powered by Hackadelic Sliding Notes 1.6.5

Оставить мнение

Вы должны войти, чтобы высказать мнение.